Сегодня идет свободное скачивание без начисления Download

Internal Bleeding - Onward To Mecca (2004) [FLAC|Lossless|tracks + .cue] <Death Metal>

Ответить на тему
 
Автор Сообщение

Bot ®

Стаж: 2 года 11 месяцев

Сообщений: 13

Создавать темы 15-Мар-2019 01:00

[Цитировать]

Internal Bleeding - Onward To Mecca (2004) - Жанр: Death Metal
Издание: Olympic Recordings - OLY 0240-2
Продолжительность: 00:37:01
Кодек: FLAC
Битрейт: Lossless
Тип рипа: tracks + .cue
Треклист:
01. Bleed by Example (3:20)
02. Siege in the Clouds (3:38)
03. Infidel (3:55)
04. Far Above You (3:47)
05. Hatefuel (4:36)
06. Arm Our Youth (4:34)
07. This Day I Fight (4:55)
08. Contamination (3:40)
09. Intolerance (4:36)
Отчёт EAC:
Exact Audio Copy V1.1 from 23. June 2015
EAC extraction logfile from 24. December 2016, 6:58
Internal Bleeding / Onward to Mecca
Used drive : ATAPI iHOS104 Adapter: 1 ID: 0
Read mode : Secure
Utilize accurate stream : Yes
Defeat audio cache : Yes
Make use of C2 pointers : No
Read offset correction : 696
Overread into Lead-In and Lead-Out : No
Fill up missing offset samples with silence : Yes
Delete leading and trailing silent blocks : No
Null samples used in CRC calculations : Yes
Used interface : Native Win32 interface for Win NT & 2000
Gap handling : Appended to previous track
Used output format : User Defined Encoder
Selected bitrate : 1024 kBit/s
Quality : High
Add ID3 tag : No
Command line compressor : C:\Program Files (x86)\Exact Audio Copy\Flac\flac.exe
Additional command line options : -8 -e -V -T "ARTIST=%artist%" -T "TITLE=%title%" -T "ALBUM=%albumtitle%" -T "DATE=%year%" -T "TRACKNUMBER=%tracknr1%" -T "GENRE=%genre%" -T "PERFORMER=%albuminterpret%" -T "COMPOSER=%composer%" %haslyrics%--tag-from-file=LYRICS="%lyricsfile%"%haslyrics% -T "ALBUMARTIST=%albumartist%" -T "DISCNUMBER=%cdnumber%" -T "TOTALDISCS=%totalcds%" -T "TOTALTRACKS=%numtracks%" -T "COMMENT=%comment%" %source% -o %dest%
TOC of the extracted CD
Track | Start | Length | Start sector | End sector
---------------------------------------------------------
1 | 0:00.00 | 3:20.37 | 0 | 15036
2 | 3:20.37 | 3:37.44 | 15037 | 31355
3 | 6:58.06 | 3:54.62 | 31356 | 48967
4 | 10:52.68 | 3:46.60 | 48968 | 65977
5 | 14:39.53 | 4:35.69 | 65978 | 86671
6 | 19:15.47 | 4:33.40 | 86672 | 107186
7 | 23:49.12 | 4:54.74 | 107187 | 129310
8 | 28:44.11 | 3:40.18 | 129311 | 145828
9 | 32:24.29 | 4:36.15 | 145829 | 166543
Track 1
Filename C:\EAC Rips\Internal Bleeding - Onward to Mecca (2004) - FLAC\01 Bleed by Example.wav
Pre-gap length 0:00:02.00
Peak level 100.0 %
Extraction speed 0.9 X
Track quality 99.9 %
Test CRC AC30AC9D
Copy CRC AC30AC9D
Accurately ripped (confidence 3) [622BD763] (AR v1)
Copy OK
Track 2
Filename C:\EAC Rips\Internal Bleeding - Onward to Mecca (2004) - FLAC\02 Siege in the Clouds.wav
Pre-gap length 0:00:02.00
Peak level 99.1 %
Extraction speed 1.2 X
Track quality 100.0 %
Test CRC D5B86588
Copy CRC D5B86588
Accurately ripped (confidence 3) [E929D6C1] (AR v1)
Copy OK
Track 3
Filename C:\EAC Rips\Internal Bleeding - Onward to Mecca (2004) - FLAC\03 Infidel.wav
Pre-gap length 0:00:01.78
Peak level 98.7 %
Extraction speed 1.3 X
Track quality 100.0 %
Test CRC 7BEADB3C
Copy CRC 7BEADB3C
Accurately ripped (confidence 3) [D48CF050] (AR v1)
Copy OK
Track 4
Filename C:\EAC Rips\Internal Bleeding - Onward to Mecca (2004) - FLAC\04 Far Above You.wav
Pre-gap length 0:00:02.00
Peak level 99.5 %
Extraction speed 1.4 X
Track quality 100.0 %
Test CRC 82D9C40C
Copy CRC 82D9C40C
Accurately ripped (confidence 3) [7B65DBFD] (AR v1)
Copy OK
Track 5
Filename C:\EAC Rips\Internal Bleeding - Onward to Mecca (2004) - FLAC\05 Hate Fuel.wav
Pre-gap length 0:00:02.00
Peak level 99.5 %
Extraction speed 1.6 X
Track quality 100.0 %
Test CRC 4B05221C
Copy CRC 4B05221C
Accurately ripped (confidence 3) [EEE46AA8] (AR v1)
Copy OK
Track 6
Filename C:\EAC Rips\Internal Bleeding - Onward to Mecca (2004) - FLAC\06 Arm Our Youth.wav
Pre-gap length 0:00:02.00
Peak level 100.0 %
Extraction speed 1.3 X
Track quality 99.9 %
Test CRC 6EAAFA59
Copy CRC 6EAAFA59
Accurately ripped (confidence 3) [A82674E3] (AR v1)
Copy OK
Track 7
Filename C:\EAC Rips\Internal Bleeding - Onward to Mecca (2004) - FLAC\07 This Day I Fight.wav
Pre-gap length 0:00:02.00
Peak level 100.0 %
Extraction speed 1.8 X
Track quality 100.0 %
Test CRC C7001F65
Copy CRC C7001F65
Accurately ripped (confidence 3) [D33FEDAB] (AR v1)
Copy OK
Track 8
Filename C:\EAC Rips\Internal Bleeding - Onward to Mecca (2004) - FLAC\08 Contamination.wav
Pre-gap length 0:00:02.00
Peak level 98.0 %
Extraction speed 1.8 X
Track quality 100.0 %
Test CRC 6C732116
Copy CRC 6C732116
Accurately ripped (confidence 3) [623D0B6D] (AR v1)
Copy OK
Track 9
Filename C:\EAC Rips\Internal Bleeding - Onward to Mecca (2004) - FLAC\09 Intolerance.wav
Pre-gap length 0:00:02.00
Peak level 98.0 %
Extraction speed 2.0 X
Track quality 100.0 %
Test CRC 5F99A359
Copy CRC 5F99A359
Accurately ripped (confidence 3) [33A2D4CF] (AR v1)
Copy OK
All tracks accurately ripped
No errors occurred
End of status report
---- CUETools DB Plugin V2.1.6
[CTDB TOCID: .VF3g6r4ii2PqI51z0j_4zLmOZc-] found
Submit result: .VF3g6r4ii2PqI51z0j_4zLmOZc- has been confirmed
Track | CTDB Status
1 | (1/1) Accurately ripped
2 | (1/1) Accurately ripped
3 | (1/1) Accurately ripped
4 | (1/1) Accurately ripped
5 | (1/1) Accurately ripped
6 | (1/1) Accurately ripped
7 | (1/1) Accurately ripped
8 | (1/1) Accurately ripped
9 | (1/1) Accurately ripped
==== Log checksum 225A9E02A4E4F979D8D1A5D9B9CAC2209EBBFD77D78F6588541B33A86AF4861E ====
-

Поглощение/вытеснение
Только с согласия релизера

Pashketan
[Профиль] [ЛС]
Показать сообщения:    
Ответить на тему

Текущее время: 22-Мар 11:00

Часовой пояс: UTC + 3



Вы не можете начинать темы
Вы не можете отвечать на сообщения
Вы не можете редактировать свои сообщения
Вы не можете удалять свои сообщения
Вы не можете голосовать в опросах
Вы не можете прикреплять файлы к сообщениям
Вы не можете скачивать файлы