Сегодня идет свободное скачивание без начисления Download

Сухая кровь / Dry Blood (2017) WEB-DL [H.264/1080p-LQ] [MVO]

Ответить на тему
Статистика раздачи
Размер:  3,2 GB   |    Зарегистрирован:  7 дней   |    Скачан:  0 раз
Сидов:  2  [  0 KB/s  ]   Подробная статистика пиров
 
   
 
 
Автор Сообщение

Bot ®

Стаж: 3 года 8 месяцев

Сообщений: 9

Создавать темы 15-Мар-2019 00:00

[Цитировать]

Сухая кровь / Dry Blood (2017) WEB-DL - Производство: США / Business Lunch Productions
Жанр: Ужасы
Режиссер: Келтон Джонс
Актеры: Клинт Карни, Джейми Валентайн, Келтон Джонс, Грэхэм Шелдон, Рин Элерс, Роберт В Галуццо, Мэйси Джонсон
Описание:
Наркоман приезжает в отдалённый дом в лесу, чтобы избавиться от пагубной зависимости, но там его настигают жуткие галлюцинации.

Продолжительность: 01:24:00
Качество видео: WEB-DL
Перевод: Многоголосый закадровый, любительский (HiWayGrope)
Субтитры: отсутствуют
Видео: AVC/H.264, 1912x1004, ~4882 Kbps
Аудио 1: АC3, 2 ch, 192 Kbps | русский
Аудио 2: АС3, 6 ch, 384 Kbps | английский
Mediainfo:
Общее
Уникальный идентификатор : 201379628275127985443823772742106814613 (0x97804E3DAAC161042053217D1B991895)
Полное имя : D:\FILMЬl\Dry Blood 1080p.mkv
Формат : Matroska
Версия формата : Version 4
Размер файла : 3,20 Гбайт
Продолжительность : 1 ч. 24 м.
Общий поток : 5460 Кбит/сек
Дата кодирования : UTC 2019-02-22 12:13:08
Программа кодирования : mkvmerge v29.0.0 ('Like It Or Not') 64-bit
Библиотека кодирования : libebml v1.3.6 + libmatroska v1.4.9
Видео
Идентификатор : 1
Формат : AVC
Формат/Информация : Advanced Video Codec
Профиль формата : High@L4
Настройки формата : CABAC / 4 Ref Frames
Параметр CABAC формата : Да
Параметр RefFrames формата : 4 кадра
Идентификатор кодека : V_MPEG4/ISO/AVC
Продолжительность : 1 ч. 24 м.
Битрейт : 4882 Кбит/сек
Ширина : 1912 пикселей
Высота : 1004 пикселя
Соотношение сторон : 1,904
Режим частоты кадров : Постоянный
Частота кадров : 23,976 кадра/сек
Цветовое пространство : YUV
Субдискретизация насыщенности : 4:2:0
Битовая глубина : 8 бит
Тип развёртки : Прогрессивная
Бит/(Пиксели*Кадры) : 0.106
Размер потока : 2,87 Гбайт (89%)
Язык : English
Default : Да
Forced : Нет
Цветовой диапазон : Limited
Основные цвета : BT.709
Характеристики трансфера : BT.709
Коэффициенты матрицы : BT.709
Аудио #1
Идентификатор : 2
Формат : AC-3
Формат/Информация : Audio Coding 3
Коммерческое название : Dolby Digital
Идентификатор кодека : A_AC3
Продолжительность : 1 ч. 24 м.
Вид битрейта : Постоянный
Битрейт : 192 Кбит/сек
Каналы : 2 канала
Channel layout : L R
Частота : 48,0 КГц
Частота кадров : 31,250 кадров/сек (1536 SPF)
Битовая глубина : 16 бит
Метод сжатия : С потерями
Задержка видео : -42 мс.
Размер потока : 115 Мбайт (4%)
Язык : Russian
ServiceKind/String : Complete Main
Default : Да
Forced : Нет
Аудио #2
Идентификатор : 3
Формат : AC-3
Формат/Информация : Audio Coding 3
Коммерческое название : Dolby Digital
Идентификатор кодека : A_AC3
Продолжительность : 1 ч. 24 м.
Вид битрейта : Постоянный
Битрейт : 384 Кбит/сек
Каналы : 6 каналов
Channel layout : L R C LFE Ls Rs
Частота : 48,0 КГц
Частота кадров : 31,250 кадров/сек (1536 SPF)
Битовая глубина : 16 бит
Метод сжатия : С потерями
Задержка видео : -42 мс.
Размер потока : 231 Мбайт (7%)
Язык : English
ServiceKind/String : Complete Main
Default : Нет
Forced : Нет
Меню
00:00:00.000 : en:1
00:02:23.000 : en:2
00:11:11.000 : en:3
00:19:10.000 : en:4
00:31:01.000 : en:5
00:38:04.000 : en:6
00:45:08.000 : en:7
00:56:01.000 : en:8
01:04:01.000 : en:9
01:12:19.000 : en:10
01:22:12.000 : en:11
Скриншоты:
Все одноименные релизы в КлубеВремя раздачи: с 09:00 до 23:30 (до появления первых 3-5 скачавших)
[94.242.222.240].t1183638.torrent 
Торрент: Зарегистрирован [ 2019-03-15 00:00 ] · 29E2854E6161D5796719092E6751747A5F220968

Скачать .torrent

Скачать

17 KB

Статус: проверено
Скачан: 0 раз
Размер: 3,2 GB
terms.php
Последние поблагодарившие
[Профиль] [ЛС]
Показать сообщения:    
Ответить на тему

Текущее время: 22-Мар 11:00

Часовой пояс: UTC + 3



Вы не можете начинать темы
Вы не можете отвечать на сообщения
Вы не можете редактировать свои сообщения
Вы не можете удалять свои сообщения
Вы не можете голосовать в опросах
Вы не можете прикреплять файлы к сообщениям
Вы можете скачивать файлы