Сегодня идет свободное скачивание без начисления Download

Лунатики / Sleepwalkers (1992) [1080p] BDRemux

Ответить на тему
 
Автор Сообщение

Bot ®

Стаж: 4 года 8 месяцев

Сообщений: 9

Создавать темы 14-Мар-2019 23:30

[Цитировать]

Лунатики / Sleepwalkers (1992) BDRemux- Русское название: Лунатики
Оригинальное название: Sleepwalkers
Страна: США
Год выпуска: 1992
Жанр: Ужасы, Триллер
Описание фильма:
Лунатик - это меняющее форму существо, имеющее и человеческие, и кошачьи черты. Лунатик кормится жизненной силой девственниц человеческого происхождения, а умереть могут только от когтей кошки. Они, очевидно, стали источником легенды о вампирах." - Словарь эзотерического знания. Действие этой экранизации по Стивену Кингу начинается в Калифорнии, где полицейские обнаруживают кучу убитых, истерзанных и повешенных кошек и высохший труп девочки с розой в волосах. Лунатики могут быть невидимыми, обладают даром телекинеза, невероятно сильны и живут вечно при двух условиях - как уже было сказано, нужны девственницы и противопоказаны кошки. По этим законам жили Чарли Брэйди и его мать Мэри. Они любили друг друга и переезжали из города в город, не зная, есть ли еще такие существа, как они. А кошки подбирались к их счастью все ближе и ближе. Очень хорошая картина ужасов, совсем не глупая.
Режиссер: Мик Гаррис / Mick Garris
Актеры: Брайан Краузе, Медкен Эмик, Элис Крайдж, Джим Хейни, Синди Пикетт, Рон Перлман, Лаймен Уорд, Дэн Мартин, Гленн Шэдикс, Синтия Гэррис, Стивен Кинг, Джо Данте, Клайв Баркер, Тоуб Хупер, Джон Лэндис
Продолжительность: 01:29:11
Перевод: 2x Профессиональный |многоголосый, закадровый| + 2x Авторский |одноголосый, закадровый|
Оригинальная аудиодорожка: английский
Субтитры: английские


Рейтинг R - Детям до 17 лет обязательно присутствие родителей
Видеокодек: MPEG-4 AVC/H.264
Битрейт видео: ~24885 kbps
Размер кадра: 1920x1080p
Качество видео: BDRemux
Аудиокодек: DTS-HD MA+AC3
Аудио 1: Русский DTS-HD Master Audio / 2.0 / 48 kHz / 899 kbps / 16-bit (DTS Core: 2.0 / 48 kHz / 512 kbps / 16-bit) | Видеосервис
Аудио 2: Русский AC3 2.0 / 48 kHz / 192 kbps | МВО
Аудио 3: Русский AC3 2.0 / 48 kHz / 192 kbps | Гаврилов
Аудио 4: Русский DTS-HD Master Audio / 2.0 / 48 kHz / 910 kbps / 16-bit (DTS Core: 2.0 / 48 kHz / 512 kbps / 16-bit) | Живов
Аудио 5: Английский DTS-HD Master Audio / 2.0 / 48 kHz / 1755 kbps / 16-bit (DTS Core: 2.0 / 48 kHz / 1509 kbps / 16-bit)Скриншоты:
Знаете ли вы, что...
Считается, что это первый кинофильм, снятый по оригинальному сценарию Стивена Кинга, а не адаптирующий так или иначе какое-либо его произведение. На самом деле это не совсем так: для создания сценария Стивен Кинг использовал сюжет одного из своих неопубликованных рассказов.
Съемки фильма целиком проходили в Лос-Анджелесе, штат Калифорния.
Стивен Кинг снялся в фильме в роли смотрителя кладбища..
Дом лунатиков — это тот же дом, в котором снимался популярный семейный телесериал «Уолтоны» (1972—81).
В эпизоде на кладбище на надгробной плите за правым плечом Чарльза Брэди можно прочесть имя ассистентки режиссера фильма — Дженни Хикс.
В эпизоде погони патрульного за Чарльзом Брэди можно заметить, что одометр в машине Чарльза крутится в обратную сторону, — это очевидная отсылка к роману Стивена Кинга «Кристина» (и к его экранизации — одноименному фильму Джона Карпентера).
Позже машина Чарльза превращается из голубой в ярко-красную — в этом также можно усматривать намек на «Кристину».
В прологе фильма, когда лейтенант Дженнингс и другой полицейский, разговаривая, идут мимо полицейской машины, в ее заднем стекле можно заметить отражение микрофона.
Стреляя в Мэри Брэди в доме Тани Робертсон, помощник шерифа Хорас дважды разбивает выстрелом одну и ту же стеклянную или хрустальную вазу с желтыми цветами.
В конце фильма Таня режет руку об осколок стекла в окне. Однако в следующем кадре стекло исчезает.
Получив заряд картечи в спину, Чарльз Брэди садится в машину и едет домой. Когда он выходит из машины, окровавленное отверстие от попадания на его спине бесследно исчезает.
MediaInfo:
General
Complete name : O:\Sleepwalkers.1992.1080p.Bluray.AVC.Remux.mkv
Format : Matroska
File size : 18.0 GiB
Duration : 1h 29mn
Overall bit rate : 28.8 Mbps
Movie name : Sleepwalkers.1992.1080p.Bluray.AVC.Remux
Encoded date : UTC 2012-10-18 18:21:05
Writing application : mkvmerge v4.9.1 ('Ich will') сборка от Jul 11 2011 23:53:15
Writing library : libebml v1.2.1 + libmatroska v1.1.1
Video
ID : 1
Format : AVC
Format/Info : Advanced Video Codec
Format profile : High@L4.1
Format settings, CABAC : Yes
Format settings, ReFrames : 2 frames
Muxing mode : Container profile=Unknown@4.1
Codec ID : V_MPEG4/ISO/AVC
Duration : 1h 29mn
Width : 1 920 pixels
Height : 1 080 pixels
Display aspect ratio : 16:9
Frame rate : 23.976 fps
Resolution : 8 bits
Colorimetry : 4:2:0
Scan type : Progressive
Audio #1
ID : 2
Format : DTS
Format/Info : Digital Theater Systems
Format profile : MA
Codec ID : A_DTS
Duration : 1h 29mn
Bit rate mode : Variable
Channel(s) : 2 channels
Channel positions : Front: L, R
Sampling rate : 48.0 KHz
Resolution : 16 bits
Title : Видеосервис
Language : Russian
Audio #2
ID : 3
Format : AC-3
Format/Info : Audio Coding 3
Codec ID : A_AC3
Duration : 1h 29mn
Bit rate mode : Constant
Bit rate : 192 Kbps
Channel(s) : 2 channels
Channel positions : L R
Sampling rate : 48.0 KHz
Stream size : 122 MiB (1%)
Title : MVO
Language : Russian
Audio #3
ID : 4
Format : AC-3
Format/Info : Audio Coding 3
Codec ID : A_AC3
Duration : 1h 29mn
Bit rate mode : Constant
Bit rate : 192 Kbps
Channel(s) : 2 channels
Channel positions : L R
Sampling rate : 48.0 KHz
Stream size : 122 MiB (1%)
Title : Андрей Гаврилов
Language : Russian
Audio #4
ID : 5
Format : DTS
Format/Info : Digital Theater Systems
Format profile : MA
Codec ID : A_DTS
Duration : 1h 29mn
Bit rate mode : Variable
Channel(s) : 2 channels
Channel positions : Front: L, R
Sampling rate : 48.0 KHz
Resolution : 16 bits
Title : Юрий Живов
Language : Russian
Audio #5
ID : 6
Format : DTS
Format/Info : Digital Theater Systems
Format profile : MA
Codec ID : A_DTS
Duration : 1h 29mn
Bit rate mode : Variable
Channel(s) : 2 channels
Channel positions : L R
Sampling rate : 48.0 KHz
Resolution : 16 bits
Text #1
ID : 7
Format : UTF-8
Codec ID : S_TEXT/UTF8
Codec ID/Info : UTF-8 Plain Text
Title : SRT
Text #2
ID : 8
Format : PGS
Codec ID : S_HDMV/PGS
Codec ID/Info : The same subtitle format used on BDs/HD-DVDs
Title : PGS
Menu
00:00:00.000 : en:00:00:00.000
00:05:36.836 : en:00:05:36.836
00:10:45.228 : en:00:10:45.228
00:16:34.160 : en:00:16:34.160
00:20:35.151 : en:00:20:35.151
00:27:05.582 : en:00:27:05.582
00:30:24.239 : en:00:30:24.239
00:36:44.160 : en:00:36:44.160
00:43:27.855 : en:00:43:27.855
00:49:09.238 : en:00:49:09.238
00:54:17.546 : en:00:54:17.546
01:00:03.308 : en:01:00:03.308
01:03:28.763 : en:01:03:28.763
01:09:49.811 : en:01:09:49.811
01:14:32.009 : en:01:14:32.009
01:18:29.872 : en:01:18:29.872
Время раздачи: 24/7 - круглосуточно
Спасибо - это прекрасное словo, но если Вам реально хочется меня отблагодарить, оставайтесь на раздаче как можно дольше, и тогда наша благодарность будет обоюдной!!!!
[Профиль] [ЛС]
Показать сообщения:    
Ответить на тему

Текущее время: 22-Мар 11:00

Часовой пояс: UTC + 3



Вы не можете начинать темы
Вы не можете отвечать на сообщения
Вы не можете редактировать свои сообщения
Вы не можете удалять свои сообщения
Вы не можете голосовать в опросах
Вы не можете прикреплять файлы к сообщениям
Вы не можете скачивать файлы