Сегодня идет свободное скачивание без начисления Download

Неудержимый / Bullet to the Head (2012) BDRip [H.264/720p-LQ]

Ответить на тему
Статистика раздачи
Размер:  2,18 GB   |    Зарегистрирован:  7 дней   |    Скачан:  0 раз
Сидов:  2  [  0 KB/s  ]   Личеров:  1  [  0 KB/s  ]   Подробная статистика пиров
 
   
 
 
Автор Сообщение

Bot ®

Стаж: 6 лет

Сообщений: 10

Создавать темы 14-Мар-2019 23:15

[Цитировать]

Неудержимый / Bullet to the Head (2012) BDRip- Год выпуска: 2012
Производство: США
Жанр: Боевик, Триллер, Криминал
Перевод: Дублированный (Лицензия)
Язык субтитров: Русский, Английский
Вид субтитров: Вшитые отключаемые
Навигация по главам: Есть (20)
Режиссер: Уолтер Хилл
Актеры: Сильвестр Сталлоне, Санг Кенг, Сара Шахи, Адевале Акинойе-Агбаже, Джейсон Момоа, Кристиан Слэйтер, Джон Седа, Холт МакКэллани, Брайан Ван Холт, Вероника Розати
Описание фильма:
Киллер из Нового Орлеана объединяется с молодым полицейским из Нью-Йорка, расследуя дело, которое выводит их с мрачных задворок Нового Орлеана в светлые коридоры правительственных зданий в Вашингтоне. Необычный дуэт формируется в результате двух жестоких убийств. Герои убирают всех, кто стоит у них на пути, и готовы пожертвовать всем, чтобы отомстить.

Дата мировой премьеры: 14 ноября 2012
Дата российской премьеры: 7 февраля 2013
Дата выхода DVD/Blu-Ray релиза: 27 июня 2013
Продолжительность: 01:31:33
Качество видео: BDRip-AVC
Видеокодек: MPEG-4 AVC/H.264
Битрейт видео: ~2957 Кбит/сек
Размер кадра: 1280x692
Аудиокодек: AC3 5.1
Битрейт аудио: 448 Кбит/сек
MediaInfo
Код: выделить всеGeneral
Unique ID                      : 189258950305798488034267215986693515708 (0x8E61F2ADC0256AEF81A9840C8F7429BC)
Complete name                  : Bullet.to.the.Head.2012.D.BDRip-AVC.2,18Gb.nnm-club.me.mkv
Format                         : Matroska
Format version                 : Version 4 / Version 2
File size                      : 2.18 GiB
Duration                       : 1h 31mn
Overall bit rate               : 3 405 Kbps
Movie name                     : Bullet to the Head.2012.BDRip.LQ.720p.NNM-CLUB
Encoded date                   : UTC 2013-06-26 17:15:39
Writing application            : mkvmerge v6.2.0 ('Promised Land') built on Apr 28 2013 12:22:01
Writing library                : libebml v1.3.0 + libmatroska v1.4.0
Video
ID                             : 1
Format                         : AVC
Format/Info                    : Advanced Video Codec
Format profile                 : High@L4.1
Format settings, CABAC         : Yes
Format settings, ReFrames      : 8 frames
Codec ID                       : V_MPEG4/ISO/AVC
Duration                       : 1h 31mn
Bit rate                       : 2 957 Kbps
Width                          : 1 280 pixels
Height                         : 692 pixels
Display aspect ratio           : 1.85:1
Frame rate mode                : Constant
Frame rate                     : 23.976 fps
Color space                    : YUV
Chroma subsampling             : 4:2:0
Bit depth                      : 8 bits
Scan type                      : Progressive
Bits/(Pixel*Frame)             : 0.139
Stream size                    : 1.85 GiB (85%)
Title                          : Bullet to the Head.2012.BDRip.LQ.720p.NNM-CLUB
Writing library                : x264 core 130 r2273 b3065e6
Encoding settings              : cabac=1 / ref=8 / deblock=1:-3:-3 / analyse=0x3:0x133 / me=umh / subme=10 / psy=1 / psy_rd=1.00:0.15 / mixed_ref=1 / me_range=24 / chroma_me=1 / trellis=2 / 8x8dct=1 / cqm=0 / deadzone=21,11 / fast_pskip=0 / chroma_qp_offset=-3 / threads=12 / lookahead_threads=3 / sliced_threads=0 / nr=0 / decimate=1 / interlaced=0 / bluray_compat=0 / constrained_intra=0 / bframes=10 / b_pyramid=2 / b_adapt=2 / b_bias=0 / direct=3 / weightb=1 / open_gop=0 / weightp=2 / keyint=240 / keyint_min=22 / scenecut=40 / intra_refresh=0 / rc_lookahead=40 / rc=2pass / mbtree=1 / bitrate=2957 / ratetol=1.0 / qcomp=0.60 / qpmin=10 / qpmax=51 / qpstep=4 / cplxblur=20.0 / qblur=0.5 / vbv_maxrate=62500 / vbv_bufsize=78125 / nal_hrd=none / ip_ratio=1.40 / aq=1:1.00
Language                       : English
Default                        : Yes
Forced                         : No
Audio
ID                             : 2
Format                         : AC-3
Format/Info                    : Audio Coding 3
Mode extension                 : CM (complete main)
Format settings, Endianness    : Big
Codec ID                       : A_AC3
Duration                       : 1h 31mn
Bit rate mode                  : Constant
Bit rate                       : 448 Kbps
Channel(s)                     : 6 channels
Channel positions              : Front: L C R, Side: L R, LFE
Sampling rate                  : 48.0 KHz
Bit depth                      : 16 bits
Compression mode               : Lossy
Stream size                    : 293 MiB (13%)
Title                          : Дублированный, лицензия
Language                       : Russian
Default                        : Yes
Forced                         : No
Text #1
ID                             : 3
Format                         : UTF-8
Codec ID                       : S_TEXT/UTF8
Codec ID/Info                  : UTF-8 Plain Text
Title                          : Русские
Language                       : Russian
Default                        : No
Forced                         : No
Text #2
ID                             : 4
Format                         : UTF-8
Codec ID                       : S_TEXT/UTF8
Codec ID/Info                  : UTF-8 Plain Text
Title                          : Английские
Language                       : English
Default                        : No
Forced                         : No
Menu
00:00:00.000                   : en:00:00:00.000
00:06:32.434                   : en:00:06:32.434
00:07:43.380                   : en:00:07:43.380
00:11:30.440                   : en:00:11:30.440
00:16:25.109                   : en:00:16:25.109
00:21:54.355                   : en:00:21:54.355
00:27:53.547                   : en:00:27:53.547
00:30:30.078                   : en:00:30:30.078
00:34:59.931                   : en:00:34:59.931
00:40:39.312                   : en:00:40:39.312
00:47:19.295                   : en:00:47:19.295
00:56:18.375                   : en:00:56:18.375
01:00:55.110                   : en:01:00:55.110
01:03:45.447                   : en:01:03:45.447
01:07:01.184                   : en:01:07:01.184
01:09:18.571                   : en:01:09:18.571
01:13:50.968                   : en:01:13:50.968
01:17:32.356                   : en:01:17:32.356
01:23:24.333                   : en:01:23:24.333
01:26:23.011                   : en:01:26:23.011
-Скриншоты:

-Неудержимый / Bullet to the Head (2012) на nnm-club.me
Время раздачи: 24/7 по возможности
[94.242.222.240].t1183631.torrent 
Торрент: Зарегистрирован [ 2019-03-14 23:15 ] · C9A11CA27EB61B1212B9C0C778FB9F8E97059F89

Скачать .torrent

Скачать

12 KB

Статус: проверено
Скачан: 0 раз
Размер: 2,18 GB
terms.php
Последние поблагодарившие
[Профиль] [ЛС]
Показать сообщения:    
Ответить на тему

Текущее время: 22-Мар 10:59

Часовой пояс: UTC + 3



Вы не можете начинать темы
Вы не можете отвечать на сообщения
Вы не можете редактировать свои сообщения
Вы не можете удалять свои сообщения
Вы не можете голосовать в опросах
Вы не можете прикреплять файлы к сообщениям
Вы можете скачивать файлы