Сегодня идет свободное скачивание без начисления Download

Робин Гуд: Начало / Robin Hood (2018) BDRip [720p] ATV

Ответить на тему
 
Автор Сообщение

Bot ®

Стаж: 4 года 9 месяцев

Сообщений: 10

Создавать темы 14-Мар-2019 22:15

[Цитировать]

Робин Гуд: Начало / Robin Hood (2018) BDRip [720p] ATV
«The Legend You Know. The Story You Don't»
- Год выпуска: 2018
Производство: США
Жанр: Боевик, триллер, приключения
Продолжительность: 01:56:08
Перевод: Дублированный (iTunes)
Субтитры: Английские
Режиссер: Отто Батхёрст
Актеры: Тэрон Эджертон, Джейми Фокс, Бен Мендельсон, Ив Хьюсон, Джейми Дорнан, Тим Минчин, Пол Андерсон, Ф. Мюррэй Абрахам, Йен Пек, Корнелиус Бут
Мировая премьера: 20 ноября 2018
Премьера (РФ): 29 ноября 2018, «Централ Партнершип»

Описание: Ветеран Крестового похода лорд Робин Локсли возвращается в родной город Ноттингем и видит, что он погряз в коррупции. Робин присоединяется к группе Весёлых Шервудских Разбойников и становится знаменитым благородным вором, продолжая при этом вести светскую жизнь для слежки за ноттингемским шерифом.-Качество: BDRip 720p
Контейнер: M4V
Видео: H.264, 1280x536, 2.40:1, 3 500 Kbps, 23.976 (24000/1001) fps
Аудио 1: Русский/Дублированный (iTunes), AAC LC / 2.0 / 160 Kbps / 48.0 KHz
Аудио 2: Английский/Оригинальная дорожка , AAC LC / 2.0 / 160 Kbps / 48.0 KHz
Аудио 3: Русский/Дублированный (iTunes), AC-3 / 5.1 / 384 Kbps / 48.0 KHz
Аудио 4: Английский/Оригинальная дорожка , AC-3 / 5.1 / 640 Kbps / 48.0 KHz-
iTunes Meta Tags
Код: выделить все
Sort Name: Robin Hood
XID: Apple:vendor_id:2018-927495
contentID: 1441710319
Copyright: © 2018 Summit Entertainment, LLC. All Rights Reserved.
Screenwriters: Бен Чэндлер, Дэвид Джеймс Келли
Producers: Дженнифер Дэвиссон, Коннор ДеШа, Леонардо ДиКаприо
Director: Отто Батхёрст
Cast: Тэрон Эджертон, Джейми Фокс, Бен Мендельсон, Ив Хьюсон, Джейми Дорнан, Тим Минчин, Пол Андерсон, Ф. Мюррэй Абрахам, Йен Пек, Корнелиус Бут
Studio: Lionsgate
Rating Annotation: Rated PG-13 for extended sequences of violence and action, and some suggestive references.
Rating: 4
Long Description: Ветеран Крестовых походов Робин и его командир бросают вызов продажным приспешникам английской короны.
Description: Ветеран Крестовых походов Робин и его командир бросают вызов продажным приспешникам английской короны.
Release Date: 2018-11-20T08:00:00Z
Genre: Action & Adventure
Artist: Otto Bathurst
Name: Robin Hood (2018)
MediaInfo
Код: выделить все
General
Complete name                            : /Users/imac/HandBrake/Robin Hood (720p HD).m4v
Format                                   : MPEG-4
Codec ID                                 : M4V  (M4V /M4A /mp42/isom)
File size                                : 3.93 GiB
Duration                                 : 1h 56mn
Overall bit rate mode                    : Variable
Overall bit rate                         : 4 840 Kbps
Movie name                               : Robin Hood (2018)
Performer                                : Otto Bathurst
Director                                 : Отто Батхёрст
Actor                                    : Тэрон Эджертон / Джейми Фокс / Бен Мендельсон / Ив Хьюсон / Джейми Дорнан / Тим Минчин / Пол Андерсон / Ф. Мюррэй Абрахам / Йен Пек / Корнелиус Бут
Screenplay by                            : Бен Чэндлер / Дэвид Джеймс Келли
Producer                                 : Дженнифер Дэвиссон / Коннор ДеШа / Леонардо ДиКаприо
Production studio                        : Lionsgate
Genre                                    : Action & Adventure
ContentType                              : Short Film
Description                              : Ветеран Крестовых походов Робин и его командир бросают вызов продажным приспешникам английской короны.
Recorded date                            : UTC 2018-11-20 08:00:00
Encoded date                             : UTC 2019-02-22 10:05:49
Tagged date                              : UTC 2019-02-22 10:08:41
Copyright                                : © 2018 Summit Entertainment, LLC. All Rights Reserved.
Cover                                    : Yes
Rating                                   : None
Title/Sort                               : Robin Hood
LongDescription                          : Ветеран Крестовых походов Робин и его командир бросают вызов продажным приспешникам английской короны.
HDVideo                                  : Yes
AppleStoreCatalogID                      : 1441710319
Vendor                                   : Apple:vendor_id:2018-927495
ContentRating                            : mpaa|PG-13|300|Rated PG-13 for extended sequences of violence and action, and some suggestive references.
Video #1
ID                                       : 1
Format                                   : AVC
Format/Info                              : Advanced Video Codec
Format profile                           : High@L3.1
Format settings                          : 3 Ref Frames
Format settings, CABAC                   : No
Format settings, ReFrames                : 3 frames
Codec ID                                 : avc1
Codec ID/Info                            : Advanced Video Coding
Duration                                 : 1h 56mn
Bit rate                                 : 3 500 Kbps
Width                                    : 1 280 pixels
Height                                   : 536 pixels
Display aspect ratio                     : 2.40:1
Frame rate mode                          : Variable
Frame rate                               : 23.976 (24000/1001) fps
Minimum frame rate                       : 23.974 fps
Maximum frame rate                       : 23.981 fps
Color space                              : YUV
Chroma subsampling                       : 4:2:0
Bit depth                                : 8 bits
Scan type                                : Progressive
Bits/(Pixel*Frame)                       : 0.213
Stream size                              : 2.83 GiB (72%)
Title                                    : Main Program
Writing library                          : x264 core 157 r2935 545de2f
Encoding settings                        : cabac=0 / ref=3 / deblock=1:-3:-3 / analyse=0x3:0x113 / me=umh / subme=9 / psy=1 / psy_rd=1.00:0.15 / mixed_ref=1 / me_range=32 / chroma_me=1 / trellis=0 / 8x8dct=1 / cqm=0 / deadzone=21,11 / fast_pskip=0 / chroma_qp_offset=-2 / threads=17 / lookahead_threads=1 / sliced_threads=0 / nr=0 / decimate=0 / interlaced=0 / bluray_compat=0 / constrained_intra=0 / bframes=3 / b_pyramid=0 / b_adapt=2 / b_bias=0 / direct=1 / weightb=0 / open_gop=0 / weightp=0 / keyint=240 / keyint_min=24 / scenecut=40 / intra_refresh=0 / rc_lookahead=40 / rc=2pass / mbtree=1 / bitrate=3500 / ratetol=1.0 / qcomp=0.65 / qpmin=0 / qpmax=69 / qpstep=4 / cplxblur=20.0 / qblur=0.5 / vbv_maxrate=9500 / vbv_bufsize=9500 / nal_hrd=none / filler=0 / ip_ratio=1.40 / aq=1:1.10
Language                                 : English
Encoded date                             : UTC 2019-02-22 10:05:49
Tagged date                              : UTC 2019-02-22 10:06:02
Color range                              : Limited
Color primaries                          : BT.709
Transfer characteristics                 : BT.709
Matrix coefficients                      : BT.709
Menus                                    : 7,8
Codec configuration box                  : avcC
Video #2
ID                                       : 8
Format                                   : JPEG
Codec ID                                 : jpeg
Duration                                 : 1h 56mn
Bit rate mode                            : Variable
Bit rate                                 : 664 bps
Width                                    : 640 pixels
Height                                   : 268 pixels
Display aspect ratio                     : 2.40:1
Frame rate mode                          : Variable
Frame rate                               : 0.002 fps
Minimum frame rate                       : 0.001 fps
Maximum frame rate                       : 0.006 fps
Color space                              : YUV
Chroma subsampling                       : 4:2:0
Bit depth                                : 8 bits
Compression mode                         : Lossy
Bits/(Pixel*Frame)                       : 1.936
Stream size                              : 648 KiB (0%)
Title                                    : Chapter Images
Language                                 : English
Default                                  : No
Encoded date                             : UTC 2019-02-22 10:07:05
Tagged date                              : UTC 2019-02-22 10:07:05
Menu For                                 : 1
ColorSpace_ICC                           : RGB
Audio #1
ID                                       : 2
Format                                   : AAC LC
Format/Info                              : Advanced Audio Codec Low Complexity
Codec ID                                 : mp4a-40-2
Duration                                 : 1h 56mn
Source duration                          : 1h 56mn
Bit rate mode                            : Variable
Bit rate                                 : 157 Kbps
Maximum bit rate                         : 222 Kbps
Channel(s)                               : 2 channels
Channel layout                           : L R
Sampling rate                            : 48.0 KHz
Frame rate                               : 46.875 fps (1024 SPF)
Compression mode                         : Lossy
Stream size                              : 131 MiB (3%)
Source stream size                       : 131 MiB (3%)
Title                                    : Russian Stereo
Language                                 : Russian
Default                                  : Yes
Alternate group                          : 1
Encoded date                             : UTC 2019-02-22 10:05:49
Tagged date                              : UTC 2019-02-22 10:07:00
Fallback From                            : 4
Audio #2
ID                                       : 3
Format                                   : AAC LC
Format/Info                              : Advanced Audio Codec Low Complexity
Codec ID                                 : mp4a-40-2
Duration                                 : 1h 56mn
Source duration                          : 1h 56mn
Bit rate mode                            : Variable
Bit rate                                 : 158 Kbps
Maximum bit rate                         : 245 Kbps
Channel(s)                               : 2 channels
Channel layout                           : L R
Sampling rate                            : 48.0 KHz
Frame rate                               : 46.875 fps (1024 SPF)
Compression mode                         : Lossy
Stream size                              : 131 MiB (3%)
Source stream size                       : 131 MiB (3%)
Title                                    : English Stereo
Language                                 : English
Default                                  : No
Alternate group                          : 1
Encoded date                             : UTC 2019-02-22 10:05:49
Tagged date                              : UTC 2019-02-22 10:07:00
Fallback From                            : 5
Audio #3
ID                                       : 4
Format                                   : AC-3
Format/Info                              : Audio Coding 3
Commercial name                          : Dolby Digital
Codec ID                                 : ac-3
Duration                                 : 1h 56mn
Bit rate mode                            : Constant
Bit rate                                 : 384 Kbps
Channel(s)                               : 6 channels
Channel layout                           : L R C LFE Ls Rs
Sampling rate                            : 48.0 KHz
Frame rate                               : 31.250 fps (1536 SPF)
Bit depth                                : 16 bits
Compression mode                         : Lossy
Stream size                              : 319 MiB (8%)
Title                                    : Russian DD 5.1
Language                                 : Russian
Service kind                             : Complete Main
Default                                  : Inherited From: 2
Alternate group                          : 1
Encoded date                             : UTC 2019-02-22 10:05:49
Tagged date                              : UTC 2019-02-22 10:07:00
Fallback To                              : 2
Audio #4
ID                                       : 5
Format                                   : AC-3
Format/Info                              : Audio Coding 3
Commercial name                          : Dolby Digital
Codec ID                                 : ac-3
Duration                                 : 1h 56mn
Bit rate mode                            : Constant
Bit rate                                 : 640 Kbps
Channel(s)                               : 6 channels
Channel layout                           : L R C LFE Ls Rs
Sampling rate                            : 48.0 KHz
Frame rate                               : 31.250 fps (1536 SPF)
Bit depth                                : 16 bits
Compression mode                         : Lossy
Stream size                              : 532 MiB (13%)
Title                                    : English DD 5.1
Language                                 : English
Service kind                             : Complete Main
Default                                  : No
Alternate group                          : 1
Encoded date                             : UTC 2019-02-22 10:05:49
Tagged date                              : UTC 2019-02-22 10:07:00
Fallback To                              : 3
Text
ID                                       : 6
Format                                   : Timed Text
Muxing mode                              : sbtl
Codec ID                                 : tx3g
Duration                                 : 1h 44mn
Bit rate mode                            : Variable
Bit rate                                 : 55 bps
Stream size                              : 42.5 KiB (0%)
Title                                    : English full
Language                                 : English
Default                                  : Yes
Forced                                   : No
Alternate group                          : 2
Encoded date                             : UTC 2019-02-22 10:05:49
Tagged date                              : UTC 2019-02-22 10:06:54
Menu #1
00:00:00.000                             : Глава 01
00:05:36.336                             : Глава 02
00:15:27.218                             : Глава 03
00:24:02.274                             : Глава 04
00:28:35.047                             : Глава 05
00:35:03.977                             : Глава 06
00:43:38.074                             : Глава 07
00:49:34.346                             : Глава 08
00:58:16.410                             : Глава 09
01:04:07.052                             : Глава 10
01:10:30.435                             : Глава 11
01:21:29.259                             : Глава 12
01:28:08.408                             : Глава 13
01:37:32.513                             : Глава 14
01:41:49.687                             : Глава 15
01:44:48.532                             : Глава 16
Menu #2
ID                                       : 7
Codec ID                                 : text
Duration                                 : 1h 56mn
Language                                 : English
Encoded date                             : UTC 2019-02-22 10:07:00
Tagged date                              : UTC 2019-02-22 10:07:00
Bit rate mode                            : CBR
Menu For                                 : 1
00:00:00.000                             : Глава 01
00:05:36.336                             : Глава 02
00:15:27.218                             : Глава 03
00:24:02.274                             : Глава 04
00:28:35.047                             : Глава 05
00:35:03.977                             : Глава 06
00:43:38.074                             : Глава 07
00:49:34.346                             : Глава 08
00:58:16.410                             : Глава 09
01:04:07.052                             : Глава 10
01:10:30.435                             : Глава 11
01:21:29.259                             : Глава 12
01:28:08.408                             : Глава 13
01:37:32.513                             : Глава 14
01:41:49.687                             : Глава 15
01:44:48.532                             : Глава 16
x264 лог
Код: выделить все
x264 [info]: frame I:2049  Avg QP:16.35  size: 99735
x264 [info]: frame P:64476 Avg QP:18.96  size: 30467
x264 [info]: frame B:100540 Avg QP:20.94  size:  8695
x264 [info]: consecutive B-frames:  6.6% 28.4% 33.4% 31.6%
x264 [info]: mb I  I16..4:  7.2% 60.0% 32.8%
x264 [info]: mb P  I16..4:  2.0%  7.3%  3.4%  P16..4: 46.8% 22.9% 10.1%  0.0%  0.0%    skip: 7.5%
x264 [info]: mb B  I16..4:  0.1%  0.8%  0.4%  B16..8: 45.3%  9.9%  1.6%  direct: 4.9%  skip:37.0%  L0:40.8% L1:51.6% BI: 7.6%
x264 [info]: 8x8 transform intra:58.1% inter:49.2%
x264 [info]: coded y,uvDC,uvAC intra: 82.8% 84.2% 61.6% inter: 24.8% 25.1% 12.9%
x264 [info]: i16 v,h,dc,p: 44% 13%  6% 36%
x264 [info]: i8 v,h,dc,ddl,ddr,vr,hd,vl,hu: 11%  6%  4% 12% 16% 15% 14% 11% 11%
x264 [info]: i4 v,h,dc,ddl,ddr,vr,hd,vl,hu: 10%  7%  3% 12% 17% 16% 14% 11%  9%
x264 [info]: i8c dc,h,v,p: 51% 16% 19% 13%
x264 [info]: ref P L0: 73.2% 16.3% 10.5%
x264 [info]: ref B L0: 78.8% 21.2%
x264 [info]: kb/s:3493.68
Скриншоты: Все одноименные релизы в Клубе-

Релиз подготовлен для просмотра на Apple TV, iPad, iPhone, iPod Touch.
Для просмотра данного релиза на компьютере с ОС Windows рекомендуется использовать VLC media player
[Профиль] [ЛС]
Показать сообщения:    
Ответить на тему

Текущее время: 22-Мар 11:00

Часовой пояс: UTC + 3



Вы не можете начинать темы
Вы не можете отвечать на сообщения
Вы не можете редактировать свои сообщения
Вы не можете удалять свои сообщения
Вы не можете голосовать в опросах
Вы не можете прикреплять файлы к сообщениям
Вы не можете скачивать файлы