Сегодня идет свободное скачивание без начисления Download

Зеленая книга / Green Book (2018) WEBRip [H.264] [MVO]

Ответить на тему
Статистика раздачи
Размер:  2,24 GB   |    Зарегистрирован:  7 дней   |    Скачан:  0 раз
Сидов:  421  [  0 KB/s  ]   Подробная статистика пиров
 
   
 
 
Автор Сообщение

Bot ®

Стаж: 3 года

Сообщений: 7

Создавать темы 14-Мар-2019 22:00

[Цитировать]

Зеленая книга / Green Book (2018) WEBRip - Производство: США / Participant Media, DreamWorks, Amblin Partners
Жанр: Драма, Комедия
Режиссер: Питер Фаррелли
Актеры: Вигго Мортенсен, Махершала Али, Линда Карделлини, Себастьян Манискалко, Димитар Маринов, Майк Хаттон, П.Дж. Бирн, Джозеф Кортезе, Мэгги Никсон, Фон Льюис
Описание:
Утонченный светский лев, богатый и талантливый музыкант нанимает в качестве водителя и телохранителя человека, который менее всего подходит для этой работы. Тони «Болтун» — вышибала, не умеющий держать рот на замке и пользоваться столовыми приборами, зато он хорошо работает кулаками. Это турне навсегда изменит жизнь обоих.
Основано на реальных событиях.

Возраст: 16+ (зрителям, достигшим 16 лет)
Рейтинг MPAA: PG-13 (детям до 13 лет просмотр нежелателен)
Дата мировой премьеры: 11 сентября 2018
Дата российской премьеры: 24 января 2019, «Capella Film»
Цифровой релиз: 25 февраля 2019, «Capella Film»
Релиз от: ExKinoRay
Продолжительность: 02:10:05
Качество видео: WEBRip
Перевод: Многоголосый закадровый, профессиональный (HDRezka Studio)
Субтитры: Русские, английские
Видео: AVC/H.264, 1024x512, ~1832 Kbps
Аудио 1: AC3, 2 ch, 256 Kbps | русский
Аудио 2: AC3, 6 ch, 384 Kbps | английский
Mediainfo:
Общее
Уникальный идентификатор : 220502744355260494161398709319771263621 (0xA5E348A840C00A7E8B2B58C6A83E9285)
Полное имя : D:\FILMЬl\Green Book 2018.mkv
Формат : Matroska
Версия формата : Version 2
Размер файла : 2,24 Гбайт
Продолжительность : 2 ч. 10 м.
Общий поток : 2470 Кбит/сек
Название фильма : Green Book 2018 from ExKinoRay
Дата кодирования : UTC 2019-02-20 02:21:26
Программа кодирования : mkvmerge v5.6.0 ('Kenya Kane') built on May 27 2012 16:44:04
Библиотека кодирования : libebml v1.2.3 + libmatroska v1.3.0
Видео
Идентификатор : 1
Формат : AVC
Формат/Информация : Advanced Video Codec
Профиль формата : High@L4.1
Настройки формата : CABAC / 12 Ref Frames
Параметр CABAC формата : Да
Параметр RefFrames формата : 12 кадров
Идентификатор кодека : V_MPEG4/ISO/AVC
Продолжительность : 2 ч. 10 м.
Битрейт : 1832 Кбит/сек
Ширина : 1024 пикселя
Высота : 512 пикселей
Соотношение сторон : 2,000
Режим частоты кадров : Постоянный
Частота кадров : 23,976 (23976/1000) кадра/сек
Цветовое пространство : YUV
Субдискретизация насыщенности : 4:2:0
Битовая глубина : 8 бит
Тип развёртки : Прогрессивная
Бит/(Пиксели*Кадры) : 0.146
Размер потока : 1,62 Гбайт (72%)
Заголовок : Enigma
Библиотека кодирования : x264 core 152 r2851 ba24899
Настройки программы : cabac=1 / ref=12 / deblock=1:-2:-2 / analyse=0x3:0x113 / me=umh / subme=10 / psy=1 / psy_rd=1.05:0.10 / mixed_ref=1 / me_range=32 / chroma_me=1 / trellis=2 / 8x8dct=1 / cqm=0 / deadzone=21,11 / fast_pskip=0 / chroma_qp_offset=-3 / threads=12 / lookahead_threads=3 / sliced_threads=0 / nr=0 / decimate=0 / interlaced=0 / bluray_compat=0 / constrained_intra=0 / bframes=10 / b_pyramid=2 / b_adapt=2 / b_bias=0 / direct=3 / weightb=1 / open_gop=0 / weightp=2 / keyint=240 / keyint_min=23 / scenecut=40 / intra_refresh=0 / rc=2pass / mbtree=0 / bitrate=1832 / ratetol=1.0 / qcomp=0.60 / qpmin=0 / qpmax=51 / qpstep=4 / cplxblur=20.0 / qblur=0.5 / ip_ratio=1.40 / pb_ratio=1.30 / aq=1:1.00
Язык : English
Default : Да
Forced : Нет
Цветовой диапазон : Limited
Основные цвета : BT.709
Характеристики трансфера : BT.709
Коэффициенты матрицы : BT.709
Аудио #1
Идентификатор : 2
Формат : AC-3
Формат/Информация : Audio Coding 3
Коммерческое название : Dolby Digital
Идентификатор кодека : A_AC3
Продолжительность : 2 ч. 10 м.
Вид битрейта : Постоянный
Битрейт : 256 Кбит/сек
Каналы : 2 канала
Channel layout : L R
Частота : 48,0 КГц
Частота кадров : 31,250 кадров/сек (1536 SPF)
Битовая глубина : 16 бит
Метод сжатия : С потерями
Размер потока : 238 Мбайт (10%)
Заголовок : MVO (HDRezka)
Язык : Russian
ServiceKind/String : Complete Main
Default : Да
Forced : Нет
Аудио #2
Идентификатор : 3
Формат : AC-3
Формат/Информация : Audio Coding 3
Коммерческое название : Dolby Digital
Идентификатор кодека : A_AC3
Продолжительность : 2 ч. 10 м.
Вид битрейта : Постоянный
Битрейт : 384 Кбит/сек
Каналы : 6 каналов
Channel layout : L R C LFE Ls Rs
Частота : 48,0 КГц
Частота кадров : 31,250 кадров/сек (1536 SPF)
Битовая глубина : 16 бит
Метод сжатия : С потерями
Размер потока : 357 Мбайт (16%)
Язык : English
ServiceKind/String : Complete Main
Default : Нет
Forced : Нет
Текст #1
Идентификатор : 4
Формат : UTF-8
Идентификатор кодека : S_TEXT/UTF8
Идентификатор кодека/Информация : UTF-8 Plain Text
Язык : Russian
Default : Нет
Forced : Нет
Текст #2
Идентификатор : 5
Формат : UTF-8
Идентификатор кодека : S_TEXT/UTF8
Идентификатор кодека/Информация : UTF-8 Plain Text
Заголовок : SDH
Язык : English
Default : Нет
Forced : Нет
Меню
00:00:00.000 : en:1
00:05:44.010 : en:2
00:11:51.043 : en:3
00:18:18.805 : en:4
00:23:47.675 : en:5
00:28:38.381 : en:6
00:34:39.783 : en:7
00:41:14.302 : en:8
00:46:45.590 : en:9
00:54:20.169 : en:10
01:02:43.337 : en:11
01:10:43.649 : en:12
01:16:17.149 : en:13
01:24:31.267 : en:14
01:30:38.716 : en:15
01:36:54.258 : en:16
01:44:57.073 : en:17
01:51:13.115 : en:18
01:54:39.862 : en:19
02:02:26.494 : en:20
Скриншоты:
Все одноименные релизы в КлубеВремя раздачи: с 09:00 до 23:30 (до появления первых 3-5 скачавших)
[94.242.222.240].t1183624.torrent 
Торрент: Зарегистрирован [ 2019-03-14 22:00 ] · 47388BC6F65E71AF9FE274CFFAF2BE64E4C37CF5

Скачать .torrent

Скачать

12 KB

Статус: проверено
Скачан: 0 раз
Размер: 2,24 GB
terms.php
Последние поблагодарившие
[Профиль] [ЛС]
Показать сообщения:    
Ответить на тему

Текущее время: 22-Мар 11:27

Часовой пояс: UTC + 3



Вы не можете начинать темы
Вы не можете отвечать на сообщения
Вы не можете редактировать свои сообщения
Вы не можете удалять свои сообщения
Вы не можете голосовать в опросах
Вы не можете прикреплять файлы к сообщениям
Вы можете скачивать файлы