Сегодня идет свободное скачивание без начисления Download

Ральф против интернета / Ralph Breaks the Internet (2018) BDRemux [H.265/2160p] [4K, HDR, 10-bit]

Ответить на тему
 
Автор Сообщение

Bot ®

Стаж: 3 года 5 месяцев

Сообщений: 11

Создавать темы 14-Мар-2019 21:16

[Цитировать]

Ральф против интернета / Ralph Breaks the Internet (2018) BDRemux [H.265/2160p] - Производство: США, Walt Disney Animation Studios, Walt Disney Pictures
Жанр: Мультфильм, Приключения, Комедия, Семейный, Фентези
Режиссер: Фил Джонстон, Рич Мур
Описание:
На этот раз Ральф и Ванилопа фон Кекс выйдут за пределы зала игровых автоматов и отправятся покорять бескрайние просторы Интернета, который может и не выдержать сокрушительного обаяния громилы.

Возраст: 6+ (зрителям, достигшим 6 лет)
Рейтинг MPAA: PG (рекомендуется присутствие родителей)
Дата мировой премьеры: 5 ноября 2018
Дата российской премьеры: 22 ноября 2018, «WDSSPR»
Релиз от: Селезень
Продолжительность: 01:53:31
Качество видео: BDRemux
Перевод: Дублированный (iTunes)
Субтитры: Русские(Forced, Full), английские(Full,SDH)
Видео: HEVC/H.265, 3840х2160, ~47,7 Mbps
Аудио #1: AC3, 6 ch, 384 Kbps | Русский (DUB, iTunes)
Аудио #2: DTS-HD MA, 8 ch, 4633 Kbps | Английский
Аудио #3: AC3, 6 ch, 640 Kbps | Английский
Mediainfo:
General
Unique ID : 217313371716373665310457890927756683508 (0xA37D08720F99C47F87CA94C4A487A8F4)
Complete name : \Ralph.Breaks.the.Internet.2018.BDREMUX.2160p.HDR.HEVC.seleZen.mkv
Format : Matroska
Format version : Version 4
File size : 42.0 GiB
Duration : 1 h 52 min
Overall bit rate mode : Variable
Overall bit rate : 53.4 Mb/s
Movie name : Ralph Breaks the Internet 4K from селезень
Encoded date : UTC 2019-02-22 01:53:07
Writing application : mkvmerge v28.0.0 ('Voice In My Head') 64-bit
Writing library : libebml v1.3.6 + libmatroska v1.4.9
Video
ID : 1
Format : HEVC
Format/Info : High Efficiency Video Coding
Commercial name : HDR10
Format profile : Main 10@L5.1@High
Codec ID : V_MPEGH/ISO/HEVC
Duration : 1 h 52 min
Bit rate : 47.7 Mb/s
Width : 3 840 pixels
Height : 2 160 pixels
Display aspect ratio : 16:9
Frame rate mode : Constant
Frame rate : 23.976 (24000/1001) FPS
Color space : YUV
Chroma subsampling : 4:2:0 (Type 2)
Bit depth : 10 bits
Bits/(Pixel*Frame) : 0.240
Stream size : 37.5 GiB (89%)
Writing library : ATEME Titan File 3.9.0 (4.9.0.0)
Language : English
Default : Yes
Forced : No
Color range : Limited
Color primaries : BT.2020
Transfer characteristics : PQ
Matrix coefficients : BT.2020 non-constant
Mastering display color primar : Display P3
Mastering display luminance : min: 0.0001 cd/m2, max: 1000 cd/m2
Audio #1
ID : 2
Format : AC-3
Format/Info : Audio Coding 3
Commercial name : Dolby Digital
Codec ID : A_AC3
Duration : 1 h 52 min
Bit rate mode : Constant
Bit rate : 384 kb/s
Channel(s) : 6 channels
Channel layout : L R C LFE Ls Rs
Sampling rate : 48.0 kHz
Frame rate : 31.250 FPS (1536 SPF)
Bit depth : 16 bits
Compression mode : Lossy
Stream size : 309 MiB (1%)
Title : iTunes
Language : Russian
Service kind : Complete Main
Default : Yes
Forced : Yes
Audio #2
ID : 3
Format : MLP FBA 16-ch
Format/Info : Meridian Lossless Packing FBA with 16-channel presentation
Commercial name : Dolby TrueHD with Dolby Atmos
Codec ID : A_TRUEHD
Duration : 1 h 52 min
Bit rate mode : Variable
Bit rate : 4 633 kb/s
Maximum bit rate : 6 441 kb/s
Channel(s) : 8 channels
Channel layout : L R C LFE Ls Rs Lb Rb
Sampling rate : 48.0 kHz
Frame rate : 1 200.000 FPS (40 SPF)
Compression mode : Lossless
Stream size : 3.64 GiB (9%)
Title : Original
Language : English
Default : No
Forced : No
Number of dynamic objects : 13
Bed channel count : 1 channel
Bed channel configuration : LFE
Audio #3
ID : 4
Format : AC-3
Format/Info : Audio Coding 3
Commercial name : Dolby Digital
Codec ID : A_AC3
Duration : 1 h 52 min
Bit rate mode : Constant
Bit rate : 640 kb/s
Channel(s) : 6 channels
Channel layout : L R C LFE Ls Rs
Sampling rate : 48.0 kHz
Frame rate : 31.250 FPS (1536 SPF)
Bit depth : 16 bits
Compression mode : Lossy
Stream size : 515 MiB (1%)
Language : English
Service kind : Complete Main
Default : No
Forced : No
Text #1
ID : 5
Format : UTF-8
Codec ID : S_TEXT/UTF8
Codec ID/Info : UTF-8 Plain Text
Duration : 1 h 41 min
Bit rate : 2 b/s
Count of elements : 46
Stream size : 1.56 KiB (0%)
Title : Forced
Language : Russian
Default : Yes
Forced : Yes
Text #2
ID : 6
Format : UTF-8
Codec ID : S_TEXT/UTF8
Codec ID/Info : UTF-8 Plain Text
Duration : 1 h 51 min
Bit rate : 122 b/s
Count of elements : 1877
Stream size : 101 KiB (0%)
Title : Full
Language : Russian
Default : No
Forced : No
Text #3
ID : 7
Format : UTF-8
Codec ID : S_TEXT/UTF8
Codec ID/Info : UTF-8 Plain Text
Duration : 1 h 51 min
Bit rate : 77 b/s
Count of elements : 1886
Stream size : 63.1 KiB (0%)
Title : Full
Language : English
Default : No
Forced : No
Text #4
ID : 8
Format : UTF-8
Codec ID : S_TEXT/UTF8
Codec ID/Info : UTF-8 Plain Text
Duration : 1 h 51 min
Bit rate : 90 b/s
Count of elements : 2473
Stream size : 73.8 KiB (0%)
Title : SDH
Language : English
Default : No
Forced : No
Menu
00:00:00.000 : en:Opening
00:04:09.666 : en:Plug-In Alert
00:11:07.416 : en:Felix's New Family
00:17:28.922 : en:I Give You the Internet
00:23:43.880 : en:eBay
00:27:54.589 : en:Get Rich Playing Video Games
00:34:18.431 : en:Slaughter Race
00:41:39.955 : en:Welcome to BuzzzTube
00:51:27.709 : en:ohmydisney.com
00:58:04.606 : en:First Rule of the Internet
01:01:50.957 : en:Decisions, Decisions
01:06:17.181 : en:You're Always Welcome here
01:12:31.805 : en:Ready to Race?
01:19:10.120 : en:What's Wrong with the Internet?
01:27:24.030 : en:Catch Me if You Can
01:38:26.775 : en:End Credits
Скриншоты:
Все одноименные релизы в КлубеВремя раздачи: 9..23 (до появления первых 3-5 скачавших)
[Профиль] [ЛС]
Показать сообщения:    
Ответить на тему

Текущее время: 22-Мар 11:28

Часовой пояс: UTC + 3



Вы не можете начинать темы
Вы не можете отвечать на сообщения
Вы не можете редактировать свои сообщения
Вы не можете удалять свои сообщения
Вы не можете голосовать в опросах
Вы не можете прикреплять файлы к сообщениям
Вы не можете скачивать файлы