Сегодня идет свободное скачивание без начисления Download

Глаз бури / Eye of the Storm (2014) WEB-DL [H.264/2160p] [4K, UHD]

Ответить на тему
Статистика раздачи
Размер:  2,41 GB   |    Зарегистрирован:  7 дней   |    Скачан:  0 раз
Сидов:  13  [  0 KB/s  ]   Подробная статистика пиров
 
   
 
 
Автор Сообщение

Bot ®

Стаж: 4 года

Сообщений: 10

Создавать темы 14-Мар-2019 16:45

[Цитировать]

Глаз бури / Eye of the Storm (2014) WEB-DL [H.264/2160p] [4K, UHD] - Производство: Исландия
Жанр: Документальный, видовой
Режиссер: Генри Джун Ва Ли
Описание:
Снятый в Исландии в период с февраля по март 2014 года, мне посчастливилось засвидетельствовать и снять фильм о солнечной вспышке класса X и выбросе корональной массы, поражающем нашу атмосферу. Получившееся сияние было зрелищем, в которое трудно поверить, даже лично, и я видел это своими собственными глазами. Насладись и ты!
Продолжительность: 00:05:40
Качество видео: WEB-DL
Перевод: Не требуется (нет диалогов и комментариев)
Субтитры: отсутствуют
Видео: AVC/H.264, 4096x2160, ~60,4 Mbps
Аудио: AAC, 2 ch, 317 Kbps
Mediainfo:
Общее
Уникальный идентификатор : 142219436854113924713470459438744555072 (0x6AFE779B25EC986F39A8085FAF9D4E40)
Полное имя : F:\КИНО\ГЛАЗ БУРИ.mkv
Формат : Matroska
Версия формата : Version 4
Размер файла : 2,41 Гбайт
Продолжительность : 5 м. 40 с.
Режим общего битрейта : Переменный
Общий поток : 60,7 Мбит/сек
Дата кодирования : UTC 2019-02-21 21:30:27
Программа кодирования : mkvmerge v31.0.0 ('Dolores In A Shoestand') 64-bit
Библиотека кодирования : libebml v1.3.6 + libmatroska v1.4.9
Видео
Идентификатор : 1
Формат : AVC
Формат/Информация : Advanced Video Codec
Профиль формата : Main@L5.1
Настройки формата : CABAC / 3 Ref Frames
Параметр CABAC формата : Да
Параметр RefFrames формата : 3 кадра
Параметр GOP формата : M=4, N=23
Идентификатор кодека : V_MPEG4/ISO/AVC
Продолжительность : 5 м. 40 с.
Вид битрейта : Переменный
Битрейт : 60,4 Мбит/сек
Максимальный битрейт : 75,0 Мбит/сек
Ширина : 4096 пикселей
Высота : 2160 пикселей
Соотношение сторон : 1,896
Режим частоты кадров : Постоянный
Частота кадров : 23,976 (24000/1001) кадра/сек
Стандарт вещания : NTSC
Цветовое пространство : YUV
Субдискретизация насыщенности : 4:2:0
Битовая глубина : 8 бит
Тип развёртки : Прогрессивная
Бит/(Пиксели*Кадры) : 0.285
Размер потока : 2,39 Гбайт (99%)
Язык : English
Default : Да
Forced : Нет
Цветовой диапазон : Limited
Аудио
Идентификатор : 2
Формат : AAC LC
Формат/Информация : Advanced Audio Codec Low Complexity
Идентификатор кодека : A_AAC-2
Продолжительность : 5 м. 40 с.
Битрейт : 317 Кбит/сек
Каналы : 2 канала
Channel layout : L R
Частота : 48,0 КГц
Частота кадров : 46,875 кадров/сек (1024 SPF)
Метод сжатия : С потерями
Задержка видео : -42 мс.
Размер потока : 12,9 Мбайт (1%)
Язык : English
Default : Да
Forced : Нет
Скриншоты:
Все одноименные релизы в КлубеВремя раздачи: с 18:00 до 23:00 (до появления первых 3-5 скачавших)
[94.242.222.240].t1183591.torrent 
Торрент: Зарегистрирован [ 2019-03-14 16:45 ] · 126AFBEC168D55288E53CC56D9B479D637CEACAE

Скачать .torrent

Скачать

13 KB

Статус: проверено
Скачан: 0 раз
Размер: 2,41 GB
terms.php
Последние поблагодарившие
[Профиль] [ЛС]
Показать сообщения:    
Ответить на тему

Текущее время: 22-Мар 11:59

Часовой пояс: UTC + 3



Вы не можете начинать темы
Вы не можете отвечать на сообщения
Вы не можете редактировать свои сообщения
Вы не можете удалять свои сообщения
Вы не можете голосовать в опросах
Вы не можете прикреплять файлы к сообщениям
Вы можете скачивать файлы