Сегодня идет свободное скачивание без начисления Download

Противостояние в Спэрроу-Крик / The Standoff at Sparrow Creek (2018) WEB-DL [H.264/1080p-LQ] [MVO]

Ответить на тему
Статистика раздачи
Размер:  3,22 GB   |    Зарегистрирован:  7 дней   |    Скачан:  0 раз
Сидов:  43  [  0 KB/s  ]   Подробная статистика пиров
 
   
 
 
Автор Сообщение

Bot ®

Стаж: 2 года 10 месяцев

Сообщений: 10

Создавать темы 14-Мар-2019 16:00

[Цитировать]

Противостояние в Спэрроу-Крик / The Standoff at Sparrow Creek (2018) WEB-DL - Производство: США / Cinestate, Look to the Sky Films, Madhouse Entertainment
Жанр: Криминал, Драма, Триллер
Режиссер: Генри Данхэм
Актеры: Джеймс Бэдж Дэйл, Патрик Фишлер, Брайан Джерати, Крис Малки, Хэппи Андерсон, Джин Джонс, Роберт Арамайо, Коттер Смит, Джеймс Хили мл, Майкл В Банч
Описание:
Главный герой – мистер Гэннон, который когда-то работал в полиции. Но сейчас ему предстоит вспомнить свои профессиональные навыки и попытаться отыскать убийцу среди тех, с кем ему прежде довелось работать вместе. Времени остается все меньше, и он понимает, что может перестать контролировать ситуацию.

Дата мировой премьеры: 18 января 2019
Продолжительность: 01:29:04
Качество видео: WEB-DL
Перевод: Многоголосый закадровый, любительский (HiWayGrope)
Субтитры: Oтсутствуют
Видео: AVC/H.264, 1920x802, ~4603 Kbps
Аудио 1: AC3, 2 ch, 192 Kbps | русский
Аудио 2: AC3, 6 ch, 384 Kbps | английский
Mediainfo:
Общее
Уникальный идентификатор : 27446280708586363931803071511584620115 (0x14A5F61D83FED0A2461546EB88C8BE53)
Полное имя : D:\FILMЬl\The Standoff at Sparrow Creek.mkv
Формат : Matroska
Версия формата : Version 4
Размер файла : 3,22 Гбайт
Продолжительность : 1 ч. 29 м.
Общий поток : 5181 Кбит/сек
Дата кодирования : UTC 2019-02-21 19:54:43
Программа кодирования : mkvmerge v29.0.0 ('Like It Or Not') 64-bit
Библиотека кодирования : libebml v1.3.6 + libmatroska v1.4.9
Видео
Идентификатор : 1
Формат : AVC
Формат/Информация : Advanced Video Codec
Профиль формата : High@L4
Настройки формата : CABAC / 5 Ref Frames
Параметр CABAC формата : Да
Параметр RefFrames формата : 5 кадров
Параметр GOP формата : N=1
Идентификатор кодека : V_MPEG4/ISO/AVC
Продолжительность : 1 ч. 29 м.
Битрейт : 4603 Кбит/сек
Ширина : 1920 пикселей
Высота : 802 пикселя
Соотношение сторон : 2,40:1
Режим частоты кадров : Постоянный
Частота кадров : 23,976 (23976/1000) кадра/сек
Цветовое пространство : YUV
Субдискретизация насыщенности : 4:2:0
Битовая глубина : 8 бит
Тип развёртки : Прогрессивная
Бит/(Пиксели*Кадры) : 0.125
Размер потока : 2,86 Гбайт (89%)
Default : Да
Forced : Нет
Цветовой диапазон : Limited
Основные цвета : BT.709
Характеристики трансфера : BT.709
Коэффициенты матрицы : BT.709
Аудио #1
Идентификатор : 2
Формат : AC-3
Формат/Информация : Audio Coding 3
Коммерческое название : Dolby Digital
Идентификатор кодека : A_AC3
Продолжительность : 1 ч. 29 м.
Вид битрейта : Постоянный
Битрейт : 192 Кбит/сек
Каналы : 2 канала
Channel layout : L R
Частота : 48,0 КГц
Частота кадров : 31,250 кадров/сек (1536 SPF)
Битовая глубина : 16 бит
Метод сжатия : С потерями
Задержка видео : -42 мс.
Размер потока : 122 Мбайт (4%)
Язык : Russian
ServiceKind/String : Complete Main
Default : Да
Forced : Нет
Аудио #2
Идентификатор : 3
Формат : AC-3
Формат/Информация : Audio Coding 3
Коммерческое название : Dolby Digital
Идентификатор кодека : A_AC3
Продолжительность : 1 ч. 29 м.
Вид битрейта : Постоянный
Битрейт : 384 Кбит/сек
Каналы : 6 каналов
Channel layout : L R C LFE Ls Rs
Частота : 48,0 КГц
Частота кадров : 31,250 кадров/сек (1536 SPF)
Битовая глубина : 16 бит
Метод сжатия : С потерями
Задержка видео : -42 мс.
Размер потока : 245 Мбайт (7%)
Язык : English
ServiceKind/String : Complete Main
Default : Нет
Forced : Нет
Скриншоты:
Все одноименные релизы в КлубеВремя раздачи: с 09:00 до 23:30 (до появления первых 3-5 скачавших)
[94.242.222.240].t1183586.torrent 
Торрент: Зарегистрирован [ 2019-03-14 16:00 ] · EB38C3DD88455D3C20DF6F8A95355F486D371CAE

Скачать .torrent

Скачать

17 KB

Статус: проверено
Скачан: 0 раз
Размер: 3,22 GB
terms.php
Последние поблагодарившие
[Профиль] [ЛС]
Показать сообщения:    
Ответить на тему

Текущее время: 22-Мар 12:01

Часовой пояс: UTC + 3



Вы не можете начинать темы
Вы не можете отвечать на сообщения
Вы не можете редактировать свои сообщения
Вы не можете удалять свои сообщения
Вы не можете голосовать в опросах
Вы не можете прикреплять файлы к сообщениям
Вы можете скачивать файлы