Сегодня идет свободное скачивание без начисления Download

(Americana, Alt. Country, Singer-Songwriter) [CD] Kevin Welch - A Patch of Blue Sky - 2010, FLAC (tracks+.cue), lossless

Ответить на тему
 
Автор Сообщение

Bot ®

Стаж: 5 лет 7 месяцев

Сообщений: 2242

Создавать темы 14-Мар-2019 15:32

[Цитировать]

Kevin Welch / A Patch of Blue Sky
Жанр: Americana, Alt. Country, Singer-Songwriter
Носитель: CD
Страна-производитель диска (релиза): USA
Год издания: 2010
Издатель (лейбл): Music Road Records
Номер по каталогу: MRRCD 008
Страна исполнителя (группы): USA
Аудиокодек: FLAC (*.flac)
Тип рипа: tracks+.cue
Битрейт аудио: lossless
Продолжительность: 00:42:38
Источник: собственный рип
Наличие сканов в содержимом раздачи: да
Треклист
01. Come a Rain (Kevin Welch) 05:09
02. The Great Emancipation (Kevin Welch) 04:31
03. Andaman Sea (Kevin Welch) 03:54
04. Marysville (Kevin Welch) 03:38
05. New Widow’s Dream (Kevin Welch / Dustin Welch) 03:51
06. Midnight and Noon (Kevin Welch) 04:33
07. Long Gone Dream (Kevin Welch / Martin Hoybye) 03:18
08. Answer Me That (Kevin Welch) 03:38
09. That’s How It Feels (Kevin Welch) 04:51
10. A Patch of Blue Sky (Kevin Welch / Claudia Scott) 05:15
Лог создания рипа
Exact Audio Copy V1.3 from 2. September 2016
EAC extraction logfile from 13. March 2019, 18:47
Kevin Welch / A Patch of Blue Sky
Used drive : ASUS BW-12D1S-U Adapter: 1 ID: 1
Read mode : Secure
Utilize accurate stream : Yes
Defeat audio cache : Yes
Make use of C2 pointers : No
Read offset correction : 667
Overread into Lead-In and Lead-Out : No
Fill up missing offset samples with silence : Yes
Delete leading and trailing silent blocks : No
Null samples used in CRC calculations : Yes
Used interface : Native Win32 interface for Win NT & 2000
Gap handling : Appended to previous track
Used output format : User Defined Encoder
Selected bitrate : 1024 kBit/s
Quality : High
Add ID3 tag : No
Command line compressor : C:\Program Files (x86)\Exact Audio Copy\FLAC\FLAC.EXE
Additional command line options : -V -8 -T "Genre=%genre%" -T "Artist=%artist%" -T "Title=%title%" -T "Album=%albumtitle%" -T "Date=%year%" -T "Tracknumber=%tracknr%" -T "Comment=%comment%" %source%
TOC of the extracted CD
Track | Start | Length | Start sector | End sector
---------------------------------------------------------
1 | 0:00.00 | 5:08.57 | 0 | 23156
2 | 5:08.57 | 4:30.43 | 23157 | 43449
3 | 9:39.25 | 3:54.05 | 43450 | 61004
4 | 13:33.30 | 3:38.36 | 61005 | 77390
5 | 17:11.66 | 3:51.11 | 77391 | 94726
6 | 21:03.02 | 4:33.17 | 94727 | 115218
7 | 25:36.19 | 3:18.07 | 115219 | 130075
8 | 28:54.26 | 3:38.10 | 130076 | 146435
9 | 32:32.36 | 4:51.25 | 146436 | 168285
10 | 37:23.61 | 5:14.59 | 168286 | 191894
Track 1
Filename E:\Torrents of Autumn\Welch, Kevin [2010] A Patch of Blue Sky\01. Come a Rain.wav
Pre-gap length 0:00:02.00
Peak level 98.1 %
Extraction speed 4.4 X
Track quality 99.9 %
Test CRC C829C4ED
Copy CRC C829C4ED
Cannot be verified as accurate (confidence 6) [08C9C026], AccurateRip returned [E5BA9FAE] (AR v2)
Copy OK
Track 2
Filename E:\Torrents of Autumn\Welch, Kevin [2010] A Patch of Blue Sky\02. The Great Emancipation.wav
Peak level 99.1 %
Extraction speed 4.8 X
Track quality 99.9 %
Test CRC E1DEB44B
Copy CRC E1DEB44B
Cannot be verified as accurate (confidence 6) [DB89810F], AccurateRip returned [AB3C2FE2] (AR v2)
Copy OK
Track 3
Filename E:\Torrents of Autumn\Welch, Kevin [2010] A Patch of Blue Sky\03. Andaman Sea.wav
Peak level 100.0 %
Extraction speed 5.0 X
Track quality 99.9 %
Test CRC B76F399E
Copy CRC B76F399E
Cannot be verified as accurate (confidence 6) [26D7414F], AccurateRip returned [BF381701] (AR v2)
Copy OK
Track 4
Filename E:\Torrents of Autumn\Welch, Kevin [2010] A Patch of Blue Sky\04. Marysville.wav
Peak level 99.9 %
Extraction speed 5.2 X
Track quality 99.9 %
Test CRC 7D8F1D01
Copy CRC 7D8F1D01
Cannot be verified as accurate (confidence 6) [A5B7D13D], AccurateRip returned [574ECA00] (AR v2)
Copy OK
Track 5
Filename E:\Torrents of Autumn\Welch, Kevin [2010] A Patch of Blue Sky\05. New Widow's Dream.wav
Peak level 98.6 %
Extraction speed 6.2 X
Track quality 100.0 %
Test CRC D399F3C9
Copy CRC D399F3C9
Cannot be verified as accurate (confidence 6) [86910A00], AccurateRip returned [16627E1D] (AR v2)
Copy OK
Track 6
Filename E:\Torrents of Autumn\Welch, Kevin [2010] A Patch of Blue Sky\06. Midnight and Noon.wav
Peak level 100.0 %
Extraction speed 6.0 X
Track quality 99.9 %
Test CRC 78A57CC2
Copy CRC 78A57CC2
Cannot be verified as accurate (confidence 6) [E3B14B04], AccurateRip returned [DA1A35FD] (AR v2)
Copy OK
Track 7
Filename E:\Torrents of Autumn\Welch, Kevin [2010] A Patch of Blue Sky\07. Long Gone Dream.wav
Peak level 100.0 %
Extraction speed 6.7 X
Track quality 100.0 %
Test CRC D7E91960
Copy CRC D7E91960
Cannot be verified as accurate (confidence 6) [32A3C617], AccurateRip returned [9FAD52C1] (AR v2)
Copy OK
Track 8
Filename E:\Torrents of Autumn\Welch, Kevin [2010] A Patch of Blue Sky\08. Answer Me That.wav
Peak level 100.0 %
Extraction speed 6.2 X
Track quality 99.9 %
Test CRC D0D21063
Copy CRC D0D21063
Cannot be verified as accurate (confidence 6) [0C0F840F], AccurateRip returned [840B5D4E] (AR v2)
Copy OK
Track 9
Filename E:\Torrents of Autumn\Welch, Kevin [2010] A Patch of Blue Sky\09. That's How It Feels.wav
Peak level 100.0 %
Extraction speed 7.5 X
Track quality 100.0 %
Test CRC 023ACBCF
Copy CRC 023ACBCF
Cannot be verified as accurate (confidence 6) [BD5C9EA5], AccurateRip returned [12B4760D] (AR v2)
Copy OK
Track 10
Filename E:\Torrents of Autumn\Welch, Kevin [2010] A Patch of Blue Sky\10. A Patch of Blue Sky.wav
Peak level 100.0 %
Extraction speed 7.7 X
Track quality 100.0 %
Test CRC D020A2BD
Copy CRC D020A2BD
Cannot be verified as accurate (confidence 6) [0902A9F2], AccurateRip returned [A0E06EC1] (AR v2)
Copy OK
No tracks could be verified as accurate
You may have a different pressing from the one(s) in the database
No errors occurred
End of status report
---- CUETools DB Plugin V2.1.6
[CTDB TOCID: sjsmnMM798tYJSsCctfMjzLPqmA-] found
Submit result: sjsmnMM798tYJSsCctfMjzLPqmA- has been confirmed
Track | CTDB Status
1 | (10/10) Accurately ripped
2 | (10/10) Accurately ripped
3 | (10/10) Accurately ripped
4 | (10/10) Accurately ripped
5 | (10/10) Accurately ripped
6 | (10/10) Accurately ripped
7 | (10/10) Accurately ripped
8 | (10/10) Accurately ripped
9 | (10/10) Accurately ripped
10 | (10/10) Accurately ripped
==== Log checksum 75E41E6A9426935CBCC50D627D0B1A9AACFC766C11206F3EA39F917C696C61ED ====
Содержание индексной карты (.CUE)
REM GENRE Rock
REM DATE 2010
REM DISCID 7909FE0A
REM COMMENT "ExactAudioCopy v1.3"
PERFORMER "Kevin Welch"
TITLE "A Patch of Blue Sky"
REM COMPOSER ""
FILE "01. Come a Rain.wav" WAVE
TRACK 01 AUDIO
TITLE "Come a Rain"
PERFORMER "Kevin Welch"
REM COMPOSER "Kevin Welch"
INDEX 01 00:00:00
FILE "02. The Great Emancipation.wav" WAVE
TRACK 02 AUDIO
TITLE "The Great Emancipation"
PERFORMER "Kevin Welch"
REM COMPOSER "Kevin Welch"
INDEX 01 00:00:00
FILE "03. Andaman Sea.wav" WAVE
TRACK 03 AUDIO
TITLE "Andaman Sea"
PERFORMER "Kevin Welch"
REM COMPOSER "Kevin Welch"
INDEX 01 00:00:00
FILE "04. Marysville.wav" WAVE
TRACK 04 AUDIO
TITLE "Marysville"
PERFORMER "Kevin Welch"
REM COMPOSER "Kevin Welch"
INDEX 01 00:00:00
FILE "05. New Widow's Dream.wav" WAVE
TRACK 05 AUDIO
TITLE "New Widow's Dream"
PERFORMER "Kevin Welch"
REM COMPOSER "Kevin Welch / Dustin Welch"
INDEX 01 00:00:00
FILE "06. Midnight and Noon.wav" WAVE
TRACK 06 AUDIO
TITLE "Midnight and Noon"
PERFORMER "Kevin Welch"
REM COMPOSER "Kevin Welch"
INDEX 01 00:00:00
FILE "07. Long Gone Dream.wav" WAVE
TRACK 07 AUDIO
TITLE "Long Gone Dream"
PERFORMER "Kevin Welch"
REM COMPOSER "Kevin Welch / Martin Hoybye"
INDEX 01 00:00:00
FILE "08. Answer Me That.wav" WAVE
TRACK 08 AUDIO
TITLE "Answer Me That"
PERFORMER "Kevin Welch"
REM COMPOSER "Kevin Welch"
INDEX 01 00:00:00
FILE "09. That's How It Feels.wav" WAVE
TRACK 09 AUDIO
TITLE "That's How It Feels"
PERFORMER "Kevin Welch"
REM COMPOSER "Kevin Welch"
INDEX 01 00:00:00
FILE "10. A Patch of Blue Sky.wav" WAVE
TRACK 10 AUDIO
TITLE "A Patch of Blue Sky"
PERFORMER "Kevin Welch"
REM COMPOSER "Kevin Welch / Claudia Scott"
INDEX 01 00:00:00
Доп. информация
Об исполнителе (группе)
Americana singer/songwriter Kevin Welch left his Oklahoma home at age 17 to pursue a life in music, settling in Nashville in 1978 after years of traveling. He soon signed on as a staff writer at Sony/Tree, over the decade to follow authoring songs for artists including Waylon Jennings, Roger Miller, Trisha Yearwood, Ricky Skaggs, and the Highwaymen; Welch’s self-titled solo debut finally appeared on Reprise in 1990, followed two years later by the acclaimed Western Beat. Country radio remained resistant to his downbeat, acoustic style, however, and in 1995 he teamed with fellow Nashville renegades Kieran Kane, Tammy Rogers, and Harry Stinson to form his own independent label, Dead Reckoning. Welch’s first album for the label, Life Down Here on Earth, followed soon after, and in 1999 he returned with Beneath My Wheels. Between 1999 and 2001, Welch recorded the Millionaire album with friends from Denmark called the Danes, and released it in the U.S. on Dead Reckoning. (Jason Ankeny, AllMusic)
Об альбоме (сборнике)
Kevin Welch made his name as a progressive country artist in the ’90s, gradually evolving beyond the alt-country pigeonhole over the years, both on his own and as a member of Americana trio Kane Welch Kaplin. On his sixth solo album—and his first since he started working with the aforementioned threesome—you’d be hard-pressed to find traces of Welch’s country background. You’ll also encounter nary an uptempo tune—A Patch of Blue Sky is pretty much a ballad album from start to finish. One might cavil about the lack of dynamics, but over the course of these ten tracks, it seems obvious that establishing a singular mood was more important to Welch than keeping fidgety listeners fixated. This approach is right in line with Welch’s songwriting style itself. All the tunes here employ the kind of precision-tooled craftsmanship you’ll find on, say, a Guy Clark album, where incisive observations abound but fancy lyrical footwork is abjured. You feel every moment of “Andaman Sea”’s emotional journey as if it was a part of your own personal experience, and when Welch adopts the Socratic method to get to the center of philosophical truths about life and love on “Answer Me That,” he gets right to the heart of the matter, where a less mature songwriter might have overreached. Much of the album features sparse arrangements, focuses on Welch’s own acoustic guitar patterns, and when the mournful “New Widow’s Dream” comes rolling out amid a particularly spare setting, Welch’s dusty voice is given plenty of room to communicate the subtleties of the song. “These days are filled with beauty and sadness,” sings Welch on the achingly bittersweet “That’s How It Feels,” and that indeed feels like the overriding sentiment of A Patch of Blue Sky. (James Allen, AllMusic)
Состав
THE BAND:
Rick Richards: drums
Glenn Fukunaga: bass
Bukka Allen: piano, Wurlitzer, B3, harmonium
Brian Standefer: cello
Dustin Welch: banjo, electric resonator guitar, background vocals
Kevin Welch: acoustic and electric guitar, vocals
Fats Kaplin: pedal steel
THE SINGERS:
Eliza Gylkison: “Andaman Sea”
Sally Allen: “Midnight and Noon”
Jeremy Nail: “The Great Emancipation”
Dustin Welch: “Marysville”
Jackie Johnson: “A Patch of Blue Sky”
Preston Shannon: “A Patch of Blue Sky”
The Trishas (Savannah Welch, Kelley Mickwee, Jamie Wilson, Liz Foster): “A Patch of Blue Sky”
Savannah Welch: “Come a Rain”
Kelley Mickwee: “Come a Rain”
The Burns Sisters: “Come a Rain”
Executive Producer: Keley Warren
[Профиль] [ЛС]
Показать сообщения:    
Ответить на тему

Текущее время: 22-Мар 11:42

Часовой пояс: UTC + 3



Вы не можете начинать темы
Вы не можете отвечать на сообщения
Вы не можете редактировать свои сообщения
Вы не можете удалять свои сообщения
Вы не можете голосовать в опросах
Вы не можете прикреплять файлы к сообщениям
Вы не можете скачивать файлы